What jazz ALBUM are you currently listening to?

0 Members and 1 Guest are viewing this topic. Read 1281446 times.

Asimov

Re: What jazz ALBUM are you currently listening to?
« Reply #19200 on: 6 Apr 2018, 02:45 pm »


Blue Mitchell - Bantu Village (1969)

garyalex

  • Jr. Member
  • Posts: 67
Re: What jazz ALBUM are you currently listening to?
« Reply #19201 on: 6 Apr 2018, 04:03 pm »



Cecil Taylor - Unit Structures 

Rest in Peace Cecil and thank you for the great music.

jrobinson

  • Full Member
  • Posts: 624
Re: What jazz ALBUM are you currently listening to?
« Reply #19202 on: 16 Apr 2018, 03:04 am »



ArthurDent

  • Full Member
  • Posts: 9172
  • Don't Panic / Mostly Harmless
Re: What jazz ALBUM are you currently listening to?
« Reply #19203 on: 18 Apr 2018, 11:03 pm »
         

            Chico Hamilton:  Peregrinations         '75

ArthurDent

  • Full Member
  • Posts: 9172
  • Don't Panic / Mostly Harmless
Re: What jazz ALBUM are you currently listening to?
« Reply #19204 on: 18 Apr 2018, 11:44 pm »
       

         Ahmad Jamal:  Ahmad's Blues       '94

richidoo

Re: What jazz ALBUM are you currently listening to?
« Reply #19205 on: 20 Apr 2018, 02:00 am »


Smart and dissonant

F_Drew

  • Jr. Member
  • Posts: 12
Willie Pickens
« Reply #19206 on: 20 Apr 2018, 03:59 am »



Noirlander

  • Full Member
  • Posts: 394
  • Spreading the joy of noir, one flic at a time
Re: What jazz ALBUM are you currently listening to?
« Reply #19207 on: 22 Apr 2018, 08:49 am »


Paul Chambers - 1st Bassman
Paul Chambers - b
Yusef Lateef - ts, fl
Tommy Turrentine - tpt
Lex Humphries - ds

Noirlander

  • Full Member
  • Posts: 394
  • Spreading the joy of noir, one flic at a time
Re: What jazz ALBUM are you currently listening to?
« Reply #19208 on: 22 Apr 2018, 12:28 pm »


Miles Davis and Sonny Stitt Live in Stockholm 1960
Miles Davis - tpt
Sonny Stitt - as, ts
Wynton Kelly - p
Paul Chambers - b
Jimmy Cobb - ds

ArthurDent

  • Full Member
  • Posts: 9172
  • Don't Panic / Mostly Harmless
Re: What jazz ALBUM are you currently listening to?
« Reply #19209 on: 27 Apr 2018, 05:17 pm »
       

         The Lonnie Smith Trio:  Afro Blue         '93
« Last Edit: 27 Apr 2018, 11:37 pm by ArthurDent »

Noirlander

  • Full Member
  • Posts: 394
  • Spreading the joy of noir, one flic at a time
Re: What jazz ALBUM are you currently listening to?
« Reply #19210 on: 28 Apr 2018, 01:07 am »


Sonny Red - Quartet, Quintet & Sextet
4 LPs (Breezing; A Story Tale; The Mode; Images) on 2 CDs
« Last Edit: 30 Apr 2018, 07:13 pm by Noirlander »

garyalex

  • Jr. Member
  • Posts: 67
Re: What jazz ALBUM are you currently listening to?
« Reply #19211 on: 29 Apr 2018, 03:58 pm »



McCoy Tyner - Passion Dance

ArthurDent

  • Full Member
  • Posts: 9172
  • Don't Panic / Mostly Harmless
Re: What jazz ALBUM are you currently listening to?
« Reply #19212 on: 29 Apr 2018, 11:19 pm »
       

        Charles Llyod & The Marvels:    I Long To See You      '16

S Clark

  • Full Member
  • Posts: 5395
  • measurement? We don't need no stinkin measurement
Re: What jazz ALBUM are you currently listening to?
« Reply #19213 on: 29 Apr 2018, 11:32 pm »
Blue Mitchell "The Thing to Do" on Blue Note.  W/ Junior Cook and Chick Corea
Third pressing NM.  I've been comparing speaker cables, and the brass and the drums are  intense. 

https://www.youtube.com/watch?v=xVvXB0efwEQ

And BTW, for years I'd go to Google images and copy to here.  For several months, I can't copy the image.  What's changed?

Noirlander

  • Full Member
  • Posts: 394
  • Spreading the joy of noir, one flic at a time
Re: What jazz ALBUM are you currently listening to?
« Reply #19214 on: 30 Apr 2018, 12:36 am »
Some you can copy, some you can't.

ArthurDent

  • Full Member
  • Posts: 9172
  • Don't Panic / Mostly Harmless
Re: What jazz ALBUM are you currently listening to?
« Reply #19215 on: 30 Apr 2018, 01:25 am »
       

         John McLaughlin:     Black Light    '15

maty

  • Full Member
  • Posts: 956
    • Nauscopio Scipiorum
Re: What jazz ALBUM are you currently listening to?
« Reply #19216 on: 30 Apr 2018, 06:01 pm »
Weather Report ‎– Heavy Weather (1977) (SACD 2017)

https://www.discogs.com/Weather-Report-Heavy-Weather/release/10518876


DR         Peak         RMS     Duration Track
--------------------------------------------------------------------------------
DR14      -3.98 dB   -22.20 dB      6:02 01-Birdland
DR12      -4.56 dB   -20.83 dB      6:54 02-A Remark You Made
DR15      -4.18 dB   -22.71 dB      2:52 03-Teen Town
DR13      -6.09 dB   -24.60 dB      4:00 04-Harlequin
DR14      -6.58 dB   -27.33 dB      2:12 05-Rumba Mama
DR11      -5.85 dB   -21.66 dB      4:47 06-Palladium
DR12      -7.57 dB   -26.02 dB      5:04 07-The Juggler
DR15      -5.39 dB   -23.94 dB      6:04 08-Havona
--------------------------------------------------------------------------------

Number of tracks:  8
Official DR value: DR13


https://www.amazon.com/Heavy-Weather-Report/product-reviews/B072P3FMRX/ref=cm_cr_arp_d_viewopt_srt?ie=UTF8&reviewerType=all_reviews&sortBy=recent&pageNumber=1

dB Cooper

Re: What jazz ALBUM are you currently listening to?
« Reply #19217 on: 30 Apr 2018, 07:12 pm »
Pat Metheny, 'Bright Size Life'. It still 'works'; in fact, I think it holds up better than some of his subsequent late '70s/early 80s efforts, some of which were a little 'slicker' than I like.

ArthurDent

  • Full Member
  • Posts: 9172
  • Don't Panic / Mostly Harmless
Re: What jazz ALBUM are you currently listening to?
« Reply #19218 on: 1 May 2018, 04:35 pm »
Pat Metheny, 'Bright Size Life'. It still 'works'; in fact, I think it holds up better than some of his subsequent late '70s/early 80s efforts, some of which were a little 'slicker' than I like.

 :thumb:  I still really enjoy American Garage & Watercolors as well. Have you checked out Off Ramp ?  Originally only liked the title cut, but have grown to really enjoy it in total.

               

               Charlie Christian:    The Genius of the Electric Guitar      '87

ArthurDent

  • Full Member
  • Posts: 9172
  • Don't Panic / Mostly Harmless
Re: What jazz ALBUM are you currently listening to?
« Reply #19219 on: 1 May 2018, 05:23 pm »
       

         Pat Metheny:     Watercolors    '77