What classical music you listening to, luv?

0 Members and 1 Guest are viewing this topic. Read 231087 times.

andolink

Re: What classical music you listening to, luv?
« Reply #2200 on: 21 Apr 2018, 03:22 pm »
(Lester, DID alert)

Johannes Brahms: Violin Sonata No. 1 in G major, Op. 78
Ilia Korol, violin (von Stietencron, 1999)
Natalia Grigorieva, fortepiano (Streicher, 1870)


LesterSleepsIn

  • Full Member
  • Posts: 938
Re: What classical music you listening to, luv?
« Reply #2201 on: 21 Apr 2018, 06:24 pm »
(Lester, DID alert)

Johannes Brahms: Violin Sonata No. 1 in G major, Op. 78
Ilia Korol, violin (von Stietencron, 1999)
Natalia Grigorieva, fortepiano (Streicher, 1870)



Thanks Andolink. I’m on it!




LesterSleepsIn

  • Full Member
  • Posts: 938
Re: What classical music you listening to, luv?
« Reply #2202 on: 22 Apr 2018, 06:42 pm »



maty

  • Full Member
  • Posts: 1014
    • Nauscopio Scipiorum
Re: What classical music you listening to, luv?
« Reply #2203 on: 26 Apr 2018, 06:57 pm »
Janina Fialkowska ‎– Liszt, Sonata In B Minor (1977), vinyl

https://www.discogs.com/ja/Janina-Fialkowska-Liszt-Sonata-In-B-Minor/release/6038776


 DR      Peak      RMS      Filename
----------------------------------------------------------------------------------------------

 DR13      -0.85 dB    -20.14 dB    A Piano Sonata In B Minor.wav
 DR12      -2.44 dB    -18.94 dB    B1 Chasse-Neige (Transcendental Etude No. 12).wav
 DR14      -4.98 dB    -23.47 dB    B2 Feux Follets (Transcendental Etude No. 5).wav
 DR13      -1.02 dB    -20.33 dB    B3 Mephisto Waltz.wav
----------------------------------------------------------------------------------------------

 Number of files:   4
 Official DR value:   DR13

=======================================

maty

  • Full Member
  • Posts: 1014
    • Nauscopio Scipiorum
Re: What classical music you listening to, luv?
« Reply #2204 on: 26 Apr 2018, 08:47 pm »
[TELARC] Respighi - Louis Lane, Atlanta Symphony Orchestra ‎– Pines Of Rome • The Birds • Fountains Of Rome (1985), vinyl

https://www.discogs.com/Respighi-Louis-Lane-Atlanta-Symphony-Orchestra-Pines-Of-Rome-The-Birds-Fountains-Of-Rome/master/577302



 DR      Peak      RMS      Filename
----------------------------------------------------------------------------------------------

 DR15      -0.43 dB    -21.23 dB    A1 Pini Di Roma.aif
 DR11      -1.03 dB    -17.50 dB    A2 Gli Uccelli - Preludio.aif
 DR11      -12.23 dB    -27.21 dB    A3 Gli Uccelli - La Colomba.aif
 DR14      -5.16 dB    -24.54 dB    B1 Gli Uccelli - La Gallina.aif
 DR9      -11.94 dB    -25.98 dB    B2 Gli Uccelli - L'Usignolo.aif
 DR14      -0.63 dB    -21.23 dB    B3 Gli Uccelli - Il Cucu'.aif
 DR14      -0.33 dB    -21.00 dB    B4 Fontane Di Roma.aif
----------------------------------------------------------------------------------------------

 Number of files:   7
 Official DR value:   DR13

======================================


CD Edition

https://www.amazon.com/Respighi-Pines-Rome-Birds-Fountains/product-reviews/B000003CT0/ref=cm_cr_arp_d_viewopt_srt?ie=UTF8&reviewerType=all_reviews&sortBy=recent&pageNumber=1

andolink

Re: What classical music you listening to, luv?
« Reply #2205 on: 27 Apr 2018, 03:40 pm »
Hector Parra: Early Life, for oboe, piano and string trio (2010)
ensemble recherche


maty

  • Full Member
  • Posts: 1014
    • Nauscopio Scipiorum
Re: What classical music you listening to, luv?
« Reply #2206 on: 29 Apr 2018, 08:21 pm »
Paganini - Shlomo Mintz ‎– 24 Capricci Per Violino Solo Op.1 (1982), vinyl

https://www.discogs.com/es/Paganini-Shlomo-Mintz-24-Caprices/master/617558


 DR      Peak      RMS      Filename
----------------------------------------------------------------------------------------------

 DR14      -1.12 dB    -19.68 dB    A01 24 Caprices for Violin, Op.1 - No. 1 in E.aif
 DR14      -5.36 dB    -23.26 dB    A02 24 Caprices for Violin, Op.1 - No. 2 in B minor.aif
 DR13      -2.56 dB    -21.89 dB    A03 24 Caprices for Violin, Op.1 - No. 3 in E minor.aif
 DR14      -1.49 dB    -21.25 dB    A04 24 Caprices for Violin, Op.1 - No. 4 in C minor.aif
 DR15      -4.00 dB    -22.49 dB    A05 24 Caprices for Violin, Op.1 - No. 5 in a minor.aif
 DR13      -12.21 dB    -28.71 dB    A06 24 Caprices for Violin, Op.1 - No. 6 in G minor.aif
 DR14      -3.70 dB    -21.10 dB    A07 24 Caprices for Violin, Op.1 - No. 7 in A minor.aif
 DR15      -3.70 dB    -23.85 dB    A08 24 Caprices for Violin, Op.1 - No. 8 in E flat.aif
 DR16      -3.20 dB    -23.90 dB    A09 24 Caprices for Violin, Op.1 - No. 9 in E.aif
 DR16      -2.93 dB    -23.12 dB    A10 24 Caprices for Violin, Op.1 - No. 10 in G minor.aif
 DR14      -4.20 dB    -22.62 dB    A11 24 Caprices for Violin, Op.1 - No. 11 in C.aif
 DR13      -4.81 dB    -23.50 dB    A12 24 Caprices for Violin, Op.1 - No. 12 in A flat.aif
 DR15      -3.50 dB    -24.34 dB    B01 24 Caprices for Violin, Op.1 - No. 13 in B flat.aif
 DR15      -2.00 dB    -21.03 dB    B02 24 Caprices for Violin, Op.1 - No. 14 in E flat.aif
 DR14      -3.89 dB    -22.96 dB    B03 24 Caprices for Violin, Op.1 - No. 15 in E minor.aif
 DR14      -4.40 dB    -22.28 dB    B04 24 Caprices for Violin, Op.1 - No. 16 in G minor.aif
 DR15      -3.17 dB    -23.36 dB    B05 24 Caprices for Violin, Op.1 - No. 17 in E flat.aif
 DR13      -4.22 dB    -21.45 dB    B06 24 Caprices for Violin, Op.1 - No. 18 in C.aif
 DR15      -3.22 dB    -22.93 dB    B07 24 Caprices for Violin, Op.1 - No. 19 in E flat.aif
 DR14      -5.23 dB    -24.02 dB    B08 24 Caprices for Violin, Op.1 - No. 20 in D.aif
 DR17      -3.77 dB    -25.34 dB    B09 24 Caprices for Violin, Op.1 - No. 21 in A.aif
 DR12      -7.54 dB    -24.01 dB    B10 24 Caprices for Violin, Op.1 - No. 22 in F.aif
 DR15      -4.46 dB    -23.52 dB    B11 24 Caprices for Violin, Op.1 - No. 23 in E.aif
 DR15      -0.68 dB    -21.70 dB    B12 24 Caprices for Violin, Op.1 - No. 24 in A minor.aif
----------------------------------------------------------------------------------------------

 Number of files:   24
 Official DR value:   DR14

spab

Re: What classical music you listening to, luv?
« Reply #2207 on: 29 Apr 2018, 10:28 pm »



andolink

Re: What classical music you listening to, luv?
« Reply #2208 on: 29 Apr 2018, 11:45 pm »



andolink

Re: What classical music you listening to, luv?
« Reply #2209 on: 29 Apr 2018, 11:46 pm »
Simone Movio: …come spirali… (2008)
for alto saxophone, violine, percussion and piano
Klangforum Wien, conducted by: Andreas Eberle
Gerald Preinfalk (alto saxophone), Annette Bik (violine), Lukas Schiske (percussion), Florian Müller (piano)


andolink

Re: What classical music you listening to, luv?
« Reply #2210 on: 29 Apr 2018, 11:47 pm »
Extraordinarily delightful music:

Johann Christoph Friedrich Bach: Sonatas for traverso & fortepiano
Marcello Gatti, traverso
Giovanni Togni, fortepiano


andolink

Re: What classical music you listening to, luv?
« Reply #2211 on: 29 Apr 2018, 11:49 pm »
Groundbreaking period instrument performance of a great Beethoven masterpiece:

L. van Beethoven: Piano Concerto No. 4 in G major, Op. 58
Arthur Schoonderwoerd, fortepiano
Ensemble Cristofori


maty

  • Full Member
  • Posts: 1014
    • Nauscopio Scipiorum
Re: What classical music you listening to, luv?
« Reply #2212 on: 30 Apr 2018, 06:45 pm »
Vivaldi, Academy Of St. Martin-in-the-Fields, Neville Marriner ‎– 6 Double Concertos / 6 Doppelkonzerte (1983), vinyl

https://www.discogs.com/es/Vivaldi-Academy-Of-St-Martin-in-the-Fields-Neville-Marriner-6-Double-Concertos-6-Doppelkonzerte/release/7648173


DR         Peak         RMS     Duration Track
--------------------------------------------------------------------------------
DR14      -0.20 dB   -18.29 dB      2:38 01-Concerto Pour 2 Trompettes, Violon, Cordes Et Continuo En Ré Majeur, RV 563 (P.210) - I. Allegro
DR12      -8.38 dB   -25.34 dB      1:56 02-Concerto Pour 2 Trompettes, Violon, Cordes Et Continuo En Ré Majeur, RV 563 (P.210) - II. Grave
DR14      -0.49 dB   -18.01 dB      2:14 03-Concerto Pour 2 Trompettes, Violon, Cordes Et Continuo En Ré Majeur, RV 563 (P.210) - III. Allegro
DR13      -0.38 dB   -18.18 dB      2:54 04-Concerto Pour 2 Cors, Cordes Et Continuo En Fa Majeur, RV 539 (P.321) - I. Allegro
DR9       -8.40 dB   -21.89 dB      2:35 05-Concerto Pour 2 Cors, Cordes Et Continuo En Fa Majeur, RV 539 (P.321) - II. Larghetto
DR12      -0.86 dB   -17.22 dB      2:16 06-Concerto Pour 2 Cors, Cordes Et Continuo En Fa Majeur, RV 539 (P.321) - III. Allegro
DR14      -0.03 dB   -21.65 dB      4:02 07-Concerto Pour Deux Mandolines, Cordes Et Continuo En Sol Majeur, RV 532 (P.133) - I. Allegro
DR17     -12.45 dB   -34.30 dB      4:27 08-Concerto Pour Deux Mandolines, Cordes Et Continuo En Sol Majeur, RV 532 (P.133) - II. Andante
DR15      -1.48 dB   -22.52 dB      3:56 09-Concerto Pour Deux Mandolines, Cordes Et Continuo En Sol Majeur, RV 532 (P.133) - III. Allegro
DR14      -1.18 dB   -19.44 dB      2:39 10-Concerto Pour 2 Flûtes, Cordes Et Continuo En Ut Majeur, RV 533 (P.76) - I. Allegro
DR12      -7.17 dB   -23.02 dB      1:57 11-Concerto Pour 2 Flûtes, Cordes Et Continuo En Ut Majeur, RV 533 (P.76) - II. Largo
DR13      -0.06 dB   -19.05 dB      2:11 12-Concerto Pour 2 Flûtes, Cordes Et Continuo En Ut Majeur, RV 533 (P.76) - III. Allegro
DR13      -1.63 dB   -20.17 dB      2:41 13-Concerto Pour 2 Hautbois, Cordes Et Continuo En La Mineur, RV 536 (P.53) - I. (Allegro)
DR11     -10.63 dB   -24.69 dB      2:15 14-Concerto Pour 2 Hautbois, Cordes Et Continuo En La Mineur, RV 536 (P.53) - II. Largo
DR13      -2.40 dB   -19.73 dB      1:58 15-Concerto Pour 2 Hautbois, Cordes Et Continuo En La Mineur, RV 536 (P.53) - III. Allegro
DR14      -0.05 dB   -20.40 dB      3:52 16-Concerto Pour Hautbois, Basson, Cordes Et Continuo En Sol Majeur, RV 545 (P.129) - I. Andante Molto
DR11      -8.83 dB   -24.79 dB      1:54 17-Concerto Pour Hautbois, Basson, Cordes Et Continuo En Sol Majeur, RV 545 (P.129) - II. Largo
DR14      -3.09 dB   -22.34 dB      3:53 18-Concerto Pour Hautbois, Basson, Cordes Et Continuo En Sol Majeur, RV 545 (P.129) - III. Allegro Molto
--------------------------------------------------------------------------------

Number of tracks:  18
Official DR value: DR13


CD Edition

https://www.amazon.com/Vivaldi-6-Double-Concerti/product-reviews/B0000040XJ/ref=cm_cr_arp_d_viewopt_srt?ie=UTF8&reviewerType=all_reviews&sortBy=recent&pageNumber=1

maty

  • Full Member
  • Posts: 1014
    • Nauscopio Scipiorum
Re: What classical music you listening to, luv?
« Reply #2213 on: 30 Apr 2018, 08:10 pm »
Igor Zhukov, Peter Tchaikovsky, Moscow Radio Large Symphony Orchestra, Gennadi Rozhdestvensky ‎– Concerto No. 2 For Piano And Orchestra In G Major, Op. 44 (1969), vinyl

https://www.discogs.com/Igor-Zhukov-Peter-Tchaikovsky-Moscow-Radio-Large-Symphony-Orchestra-Gennadi-Rozhdestvensky-Concerto-/release/9517433


 DR      Peak      RMS      Filename
----------------------------------------------------------------------------------------------

 DR11      -0.80 dB    -15.40 dB    A Concerto No. 2 For Piano And Orchestra In G Major, Op. 44 - Allegro Brilliante.aif
 DR14      -0.72 dB    -19.73 dB    B1 Concerto No. 2 For Piano And Orchestra In G Major, Op. 44 - Andante Non Troppo.aif
 DR12      -1.64 dB    -17.18 dB    B2 Concerto No. 2 For Piano And Orchestra In G Major, Op. 44 - Allegro Con Fuoco.aif
----------------------------------------------------------------------------------------------

 Number of files:   3
 Official DR value:   DR12

maty

  • Full Member
  • Posts: 1014
    • Nauscopio Scipiorum
Re: What classical music you listening to, luv?
« Reply #2214 on: 2 May 2018, 06:30 pm »
J. S. Bach, Concerto Köln ‎– Brandenburgische Konzerte (2018), vinyl

https://www.discogs.com/es/Johann-Sebastian-Bach-Concerto-K%C3%B6ln-Brandenburgische-Konzerte/release/11732754


 DR      Peak      RMS      Filename
----------------------------------------------------------------------------------------------

 DR12      -0.61 dB    -16.44 dB    A1 Brandenburgisches Konzert N. 1 F-Dur in F Major - BWV 1046 - 1. Allegro.aif
 DR12      -8.64 dB    -23.65 dB    A2 Brandenburgisches Konzert N. 1 F-Dur in F Major - BWV 1046 - 2. Adagio.aif
 DR14      -1.14 dB    -19.37 dB    A3 Brandenburgisches Konzert N. 1 F-Dur in F Major - BWV 1046 - 3. Allegro.aif
 DR14      -1.96 dB    -19.39 dB    A4 Brandenburgisches Konzert N. 1 F-Dur in F Major - BWV 1046 - 4. Menuet-Trio-Menuet-Polonaise-Menuet-Trio-Menuet.aif
 DR13      -0.51 dB    -16.61 dB    B1 Brandenburgisches Konzert N. 2 F-Dur in F Major - BWV 1047 - 1. Allegro.aif
 DR12      -6.58 dB    -21.76 dB    B1 Brandenburgisches Konzert N. 2 F-Dur in F Major - BWV 1047 - 2. Andante.aif
 DR13      -1.65 dB    -17.83 dB    B2 Brandenburgisches Konzert N. 2 F-Dur in F Major - BWV 1047 - 3. Allegro assai.aif
 DR14      -0.82 dB    -18.06 dB    B4 Brandenburgisches Konzert N. 3 G-Dur in G Major - BWV 1048 - 1. Allegro.aif
 DR10      -15.60 dB    -29.30 dB    B5 Brandenburgisches Konzert N. 3 G-Dur in G Major - BWV 1048 - 2. Adagio.aif
 DR13      -2.67 dB    -19.35 dB    B6 Brandenburgisches Konzert N. 3 G-Dur in G Major - BWV 1048 - 3. Allegro.aif
 DR13      -0.88 dB    -17.54 dB    C1 Brandenburgisches Konzert N. 4 G-Dur in G Major - BWV 1049 - 1. Allegro.aif
 DR11      -2.80 dB    -17.33 dB    C2 Brandenburgisches Konzert N. 4 G-Dur in G Major - BWV 1049 - 2. Andante.aif
 DR12      -1.89 dB    -17.42 dB    C3 Brandenburgisches Konzert N. 4 G-Dur in G Major - BWV 1049 - 3. Presto.aif
 DR15      -0.64 dB    -19.53 dB    C4 Brandenburgisches Konzert N. 5 D-Dur in D Major - BWV 1050 - 1. Allegro.aif
 DR13      -3.67 dB    -22.08 dB    D1 Brandenburgisches Konzert N. 5 D-Dur in D Major -0 BWV 1050 - 2. Affettuoso.aif
 DR13      -1.52 dB    -17.89 dB    D2 Brandenburgisches Konzert N. 5 D-Dur in D Major - BWV 1050 - 3. Allegro.aif
 DR13      -0.54 dB    -16.36 dB    D3 Brandenburgisches Konzert N. 6 B-Dur in B flat Major - BWV 1051 - 1. Allegro.aif
 DR13      -1.67 dB    -18.45 dB    D4 Brandenburgisches Konzert N. 6 B-Dur in B flat Major - BWV 1051 - 2. Adagio ma non tanto.aif
 DR14      -1.09 dB    -17.33 dB    D5 Brandenburgisches Konzert N. 6 B-Dur in B flat Major - BWV 1051 - 3. Allegro.aif
----------------------------------------------------------------------------------------------

 Number of files:   19
 Official DR value:   DR13


[German] https://www.amazon.de/Brandenburgische-Konzerte-Vinyl-Concerto-K%C3%B6ln/product-reviews/B07788K57W/ref=cm_cr_arp_d_viewopt_srt?ie=UTF8&reviewerType=all_reviews&sortBy=recent&pageNumber=1

LesterSleepsIn

  • Full Member
  • Posts: 938
Re: What classical music you listening to, luv?
« Reply #2215 on: 3 May 2018, 03:07 am »



LesterSleepsIn

  • Full Member
  • Posts: 938
Re: What classical music you listening to, luv?
« Reply #2216 on: 3 May 2018, 12:15 pm »






maty

  • Full Member
  • Posts: 1014
    • Nauscopio Scipiorum
Re: What classical music you listening to, luv?
« Reply #2217 on: 3 May 2018, 07:52 pm »
Oh my God, AWESOME. Adrenaline rush!!!

Massenet - Placido Domingo, Grace Bumbry, Paul Plishka, The Opera Orchestra Of New York, dir : Eve Queler ‎– Le Cid (1977), vinyl

https://www.discogs.com/es/Massenet-Placido-Domingo-Grace-Bumbry-Paul-PlishkaOpera-Orchestra-Of-New-York-dir-Eve-Queler-Le-Cid/release/11124424



 DR      Peak      RMS      Filename
----------------------------------------------------------------------------------------------

 DR14      -0.87 dB    -21.01 dB    sideA.aif
 DR13      -1.55 dB    -19.89 dB    sideB.aif
 DR13      -1.10 dB    -18.96 dB    sideC.aif
 DR13      -1.05 dB    -18.29 dB    sideD.aif
 DR13      -0.77 dB    -18.69 dB    sideE.aif
 DR12      -0.36 dB    -17.77 dB    sideF.aif
----------------------------------------------------------------------------------------------

 Number of files:   6
 Official DR value:   DR13


CD Edition

https://www.amazon.com/Massenet-Domingo-Bumbry-Plishka-Chorale/product-reviews/B000002578/ref=cm_cr_arp_d_viewopt_srt?ie=UTF8&reviewerType=all_reviews&sortBy=recent&pageNumber=1


maty

  • Full Member
  • Posts: 1014
    • Nauscopio Scipiorum
Re: What classical music you listening to, luv?
« Reply #2218 on: 6 May 2018, 05:25 pm »
Puccini - Carlo Bergonzi / Renata Scotto / Gwendolyn Killebrew / Vicente Sardinero / Opera Orchestra Of New York / Eve Queler ‎– Puccini's Edgar (1977), vinyl

https://www.discogs.com/Puccini-Carlo-Bergonzi-Renata-Scotto-Gwendolyn-Killebrew-Vicente-Sardinero-Opera-Orchestra-Of-New-Yo/release/8219080


 DR      Peak      RMS      Filename
----------------------------------------------------------------------------------------------

 DR15      -0.27 dB    -20.96 dB    side1.wav
 DR13      -0.00 dB    -17.70 dB    side2.wav
 DR14      -0.24 dB    -20.01 dB    side3.wav
 DR14      -0.28 dB    -19.50 dB    side4.wav
----------------------------------------------------------------------------------------------

 Number of files:   4
 Official DR value:   DR14

Adrenaline rush!