What classical music you listening to, luv?

0 Members and 2 Guests are viewing this topic. Read 264473 times.

andolink

Re: What classical music you listening to, luv?
« Reply #2600 on: 2 Nov 2018, 07:17 am »
A brand new release today of my favorite interpreters of Haydn’s quartets doing the Op. 64 set and, as with their other releases in this ongoing cycle, it’s sublime.

« Last Edit: 2 Nov 2018, 04:15 pm by andolink »

Tyson

  • Facilitator
  • Posts: 7607
  • Audio - It's all a big fake.
Re: What classical music you listening to, luv?
« Reply #2601 on: 2 Nov 2018, 02:47 pm »
A brand new release today of my favorite interpreters of Haydn’s quartets doing the Op. 64 set and, as with their other releases in this ongoing cycle, it’s sublime.



No pic is showing.

andolink

Re: What classical music you listening to, luv?
« Reply #2602 on: 2 Nov 2018, 04:12 pm »
Kalevi AhoConcerto for Viola and Chamber Orchestra


richidoo

Re: What classical music you listening to, luv?
« Reply #2603 on: 2 Nov 2018, 09:02 pm »


Sonata 13 in E flat, Op 27/1   :banana piano:

Brendel is my fav Beethoven Sonatas

andolink

Re: What classical music you listening to, luv?
« Reply #2604 on: 4 Nov 2018, 12:24 pm »
Johannes BrahmsString Quartet in A minor, Op. 51 no.2


andolink

Re: What classical music you listening to, luv?
« Reply #2605 on: 4 Nov 2018, 04:11 pm »
F. Joseph Haydn: Symphony No 76 in E flat major


rec. 1996

Tyson

  • Facilitator
  • Posts: 7607
  • Audio - It's all a big fake.
Re: What classical music you listening to, luv?
« Reply #2606 on: 4 Nov 2018, 09:25 pm »
Nice 24/96 recording of Bach Cantata BWV 21. 


jrobinson

  • Full Member
  • Posts: 648
Re: What classical music you listening to, luv?
« Reply #2607 on: 5 Nov 2018, 03:26 am »



andolink

Re: What classical music you listening to, luv?
« Reply #2608 on: 6 Nov 2018, 11:53 pm »

andolink

Re: What classical music you listening to, luv?
« Reply #2609 on: 8 Nov 2018, 02:40 pm »
A superb disc of mostly theater music from 17th Century England:


etcarroll

  • Full Member
  • Posts: 3227
  • SE PA. by way of Boston, MA.
Re: What classical music you listening to, luv?
« Reply #2610 on: 9 Nov 2018, 12:34 am »
Otto Klemperer, Philharmonia Orchestra ‎– The Romantic Tchaikovsky Symphonies

With the older Vandersteen 2Ci in new listening location based on the manual, listening to the 6th to hear how they handle the orchestra. They did well with rock and jazz, but a pair of 3A Signatures may be in my future to handle classical.




etcarroll

  • Full Member
  • Posts: 3227
  • SE PA. by way of Boston, MA.
Re: What classical music you listening to, luv?
« Reply #2611 on: 9 Nov 2018, 12:36 am »
Mahler* - Concertgebouw-Orchester, Amsterdam, Bernard Haitink ‎– Sinfonie Nr.5, Adagio (Sinfonie Nr.10)

The 5th - A nice clean import from Holland I picked up for $1 in my initial rush to collect classical.





andolink

Re: What classical music you listening to, luv?
« Reply #2612 on: 9 Nov 2018, 02:02 pm »
Helmut Lachenmann: Ausklang — Musik für Klavier mit Orchester (1984/85)
Massimiliano Damerini, piano
Kölner Rundfunk-Sinfonie-Orchester/ Peter Eötvös


andolink

Re: What classical music you listening to, luv?
« Reply #2613 on: 11 Nov 2018, 01:53 pm »

andolink

Re: What classical music you listening to, luv?
« Reply #2614 on: 13 Nov 2018, 03:55 pm »
IMO, one of the greatest of the great masterpieces--

Alban BergLyric Suite for string quartet (1926)


CanadianMaestro

  • Full Member
  • Posts: 1539
  • Skepticism is the engine of progress
    • Hearing Everything That Nothing Can Measure

andolink

Re: What classical music you listening to, luv?
« Reply #2616 on: 17 Nov 2018, 11:11 am »
My favorite Mahler 6th - -


andolink

Re: What classical music you listening to, luv?
« Reply #2617 on: 19 Nov 2018, 04:32 pm »
One of my all time favorite discs of 16th Century secular music:


maty

  • Full Member
  • Posts: 1149
    • Nauscopio Scipiorum
Re: What classical music you listening to, luv?
« Reply #2618 on: 19 Nov 2018, 05:10 pm »
Verdi - Cristina Deutekom, Placido Domingo, Ruggero Raimondi & Lamberto Gardelli, The Royal Philharmonic Orchestra, The Ambrosian Singers ‎– I Lombardi (1972), Vinyl x3, Philips, Netherlands

https://www.discogs.com/Verdi-Cristina-Deutekom-Placido-Domingo-Ruggero-Raimondi-Lamberto-GardelliRoyal-Philharmonic-Orchest/release/5288324



DR        Peak        RMS        Filename
----------------------------------------------------------------------------------------------

DR15        -0.58 dB     -22.12 dB     Side A.aif
DR15        -0.67 dB     -22.03 dB     Side B.aif
DR14        -0.88 dB     -20.94 dB     Side C.aif
DR15        -0.65 dB     -21.45 dB     Side D.aif
DR14        -0.66 dB     -20.36 dB     Side E.aif
DR15        -0.95 dB     -21.59 dB     Side F.aif
----------------------------------------------------------------------------------------------

Number of files:    6
Official DR value:    DR15


CD by Decca

https://www.amazon.com/Decca-Opera-Verdi-Lombardi-CD/dp/B00ANDVOCW

Quote
Editorial Reviews

I Lombardi reaches its apotheosis in the famous Trio, well known from the days of 78 rpm recordings. There are some glorious moments and the phrasing if often impressive. Domingo as Oronte is in superb voice, and the villain Pagano is well characterised by Raimondi. Among the supporting cast Stafford Dean and Clifford Grant must be mentioned. Gardelli conducts dramatically and the action projects vividly. The Penguin Guide


https://en.wikipedia.org/wiki/I_Lombardi_alla_prima_crociata

etcarroll

  • Full Member
  • Posts: 3227
  • SE PA. by way of Boston, MA.
Re: What classical music you listening to, luv?
« Reply #2619 on: 19 Nov 2018, 08:29 pm »
Ludwig van Beethoven - Cyprien Katsaris ‎– Symphony No. 3 ("Eroica") - Piano Transcription By Franz Liszt