What classical music you listening to, luv?

0 Members and 1 Guest are viewing this topic. Read 207552 times.

eljr

  • Jr. Member
  • Posts: 55
Re: What classical music you listening to, luv?
« Reply #2280 on: 1 Jun 2018, 01:54 pm »


Frieder Bernius
Joseph Haydn: Stabat Mater, Hob. XXbis

Release Date March 2, 2018
Duration59:51
Genre
Classical
Styles
Choral
Recording DateApril 5, 2017 - April 7, 2017
Recording Location
The Ev. Kirche Reutlingen-Gönningen

eljr

  • Jr. Member
  • Posts: 55
Re: What classical music you listening to, luv?
« Reply #2281 on: 1 Jun 2018, 03:29 pm »


Christian Lindberg / Norrköping Symphony Orchestra
Allan Pettersson: Symphonies 5 & 7

Release Date April 6, 2018
Duration01:22:39
Genre
Classical
Styles
Symphony
Recording DateJanuary, 2017
Recording Location
The Louis De Geer Concert Hall, Norrköping, Sweden

maty

  • Full Member
  • Posts: 954
    • Nauscopio Scipiorum
Re: What classical music you listening to, luv?
« Reply #2282 on: 1 Jun 2018, 05:13 pm »
Mahler, Klaus Tennstedt, London Philharmonic Orchestra ‎– Mahler Symphony No. 1 (1978), vinyl

https://www.discogs.com/Mahler-Klaus-Tennstedt-London-Philharmonic-Orchestra-Mahler-Symphony-No-1/master/635355


 DR      Peak      RMS      Filename
----------------------------------------------------------------------------------------------

DR16      -0.40 dB    -23.19 dB    A1 Symphony No. 1 In D Major 'Titan' - Langsam, Schleppend - Im Anfang Sehr Gemaechlich.aif
DR15      -1.89 dB    -22.96 dB    A2 Symphony No. 1 In D Major 'Titan' - Kraeftig Bewegt, Doch Nicht Zu Schnell.aif
DR16      -8.15 dB    -30.25 dB    B1 Symphony No. 1 In D Major 'Titan' - Feierlich Und Gemessen, Ohne Zu Schleppen.aif
DR15      -0.67 dB    -21.06 dB    B2 Symphony No. 1 In D Major 'Titan' - Stuermisch Bewegt.aif
----------------------------------------------------------------------------------------------

 Number of files:   4
 Official DR value:   DR16

maty

  • Full Member
  • Posts: 954
    • Nauscopio Scipiorum
Re: What classical music you listening to, luv?
« Reply #2283 on: 1 Jun 2018, 06:29 pm »
Antonín Dvořák / Wiener Philharmoniker, Lorin Maazel ‎– Symphonie N.9 >>Aus Der Neuen Welt<< From The New World (1983), vinyl

https://www.discogs.com/es/Dvo%C5%99%C3%A1k-Wiener-Philharmoniker-Lorin-Maazel-Symphonie-N9-Aus-Der-Neuen-Welt-From-The-New-World-Karne/release/3626699


 DR      Peak      RMS      Filename
----------------------------------------------------------------------------------------------

 DR15      -0.72 dB    -21.70 dB    A1 Symphonie Nr. 9 E-Moll Op. 95 'Aus Der Neuen Welt' - Adagio - Allegro Molto.aif
 DR19      -1.82 dB    -28.32 dB    A2 Symphonie Nr. 9 E-Moll Op. 95 'Aus Der Neuen Welt' - Largo.aif
 DR15      -0.61 dB    -22.55 dB    B1 Symphonie Nr. 9 E-Moll Op. 95 'Aus Der Neuen Welt' - Molto Vivace.aif
 DR14      -0.62 dB    -20.15 dB    B2 Symphonie Nr. 9 E-Moll Op. 95 'Aus Der Neuen Welt' - Allegro Con Fuoco.aif
 DR15      -0.40 dB    -21.55 dB    B3 Karneval-Ouvertuere, Op. 92 - Allegro - Andante Con Moto - Allegro.aif
----------------------------------------------------------------------------------------------

 Number of files:   5
 Official DR value:   DR16

eljr

  • Jr. Member
  • Posts: 55
Re: What classical music you listening to, luv?
« Reply #2284 on: 1 Jun 2018, 08:54 pm »

eljr

  • Jr. Member
  • Posts: 55
Re: What classical music you listening to, luv?
« Reply #2285 on: 2 Jun 2018, 02:00 pm »

eljr

  • Jr. Member
  • Posts: 55
Re: What classical music you listening to, luv?
« Reply #2286 on: 2 Jun 2018, 04:50 pm »

eljr

  • Jr. Member
  • Posts: 55
Re: What classical music you listening to, luv?
« Reply #2287 on: 2 Jun 2018, 04:51 pm »

eljr

  • Jr. Member
  • Posts: 55
Re: What classical music you listening to, luv?
« Reply #2288 on: 2 Jun 2018, 05:44 pm »

eljr

  • Jr. Member
  • Posts: 55
Re: What classical music you listening to, luv?
« Reply #2289 on: 2 Jun 2018, 07:08 pm »

andolink

Re: What classical music you listening to, luv?
« Reply #2290 on: 3 Jun 2018, 11:31 am »

eljr

  • Jr. Member
  • Posts: 55
Re: What classical music you listening to, luv?
« Reply #2291 on: 3 Jun 2018, 06:15 pm »

Randy

Re: What classical music you listening to, luv?
« Reply #2292 on: 4 Jun 2018, 11:29 pm »


I have that one, too, and used to listen to it frequently.

andolink

Re: What classical music you listening to, luv?
« Reply #2293 on: 7 Jun 2018, 12:06 pm »
F. Joseph Haydn: Symphony No. 78 in C minor


andolink

Re: What classical music you listening to, luv?
« Reply #2294 on: 7 Jun 2018, 03:53 pm »
Cantatas by Luigi Rossi


andolink

Re: What classical music you listening to, luv?
« Reply #2295 on: 7 Jun 2018, 03:54 pm »
F. Joseph Haydn: String Quartet in D minor, Op. 9 no. 4


LesterSleepsIn

  • Full Member
  • Posts: 793
Re: What classical music you listening to, luv?
« Reply #2296 on: 9 Jun 2018, 03:36 pm »

Another exciting round of Keeping up with the Andolinks!







andolink

Re: What classical music you listening to, luv?
« Reply #2297 on: 10 Jun 2018, 01:50 pm »
Witold Lutosławski: Cello Concerto
Torleif Thedéen, cello
Swedish Radio Symphony Orchestra/Leif Segerstam


andolink

Re: What classical music you listening to, luv?
« Reply #2298 on: 14 Jun 2018, 02:27 pm »

andolink

Re: What classical music you listening to, luv?
« Reply #2299 on: 14 Jun 2018, 03:36 pm »
Per Nørgård: Symphony No. 3
Danish National Radio Symphony Orchestra/Leif Segerstam